Colección Películas Viernes 13 Full 1080p HD Español Latino – Ingles

Colección Películas Viernes 13 Full 1080p HD Español Latino – Ingles

Sep. 19, 2018
Tu voto: 0
0 0 votos

Video trailer

Director

Director

Reparto

Sinopsis

Viernes 13 (1980)

El campamento del Lago Crystal, cerrado desde hace veinte años debido a una serie de terribles crímenes que nunca fueron resueltos, ha vuelto a abrir sus puertas. Varios jóvenes están deseando comenzar la diversión en el campamento de verano, pero cuando cae la noche trayendo consigo una violenta tormenta, alguien quiere jugar al asesino. “Viernes 13” cuenta con 9 terroríficas secuelas que prueban su éxito. El siniestro asesino en busca de sangre es Jason y los jóvenes destinados a ser asesinados con sangrienta y metódica precisión (incluido Kevin Bacon) está a punto de averiguar que el viernes 13 es el día más fatídico y rogarán que sólo sea una pesadilla.


[su_spoiler title=”Click para mostrar Capturas” style=”fancy” icon=”caret”][/su_spoiler]


Friday the 13th (1980)
BRRip 1080p MKV | Resolución: 1920×1080p | Codec: H.264 | Tamaño: 2.9 GB
Idiomas: Latino AC3 2.0 BD – Ingles AC3 5.1 BD
Subtitulos: Latino – Ingles | Terror – Misterio – Thriller | 5% Recuperación

[su_spoiler title=”Datos MediaInfo” style=”fancy” icon=”caret”]

General
Complete name : Friday the 13th (1980) Dual Full 1080p HD.mkv
Format : Matroska
Format version : Version 4 / Version 2
File size : 2.91 GiB
Duration : 1 h 35 min
Overall bit rate : 4 372 kb/s
Movie name : Friday the 13th (1980) Dual Full 1080p HD PeliculasMegaHDD.net
Encoded date : UTC 2017-11-21 19:28:31
Writing application : mkvmerge v15.0.0 (‘Duel with the Devil’) 64-bit
Writing library : libebml v1.3.5 + libmatroska v1.4.5

Video
ID : 1
Format : AVC
Format/Info : Advanced Video Codec
Format profile : High@L4.1
Format settings, CABAC : Yes
Format settings, RefFrames : 2 frames
Codec ID : V_MPEG4/ISO/AVC
Duration : 1 h 35 min
Bit rate : 3 471 kb/s
Width : 1 920 pixels
Height : 1 080 pixels
Display aspect ratio : 16:9
Frame rate mode : Constant
Frame rate : 23.976 (24000/1001) FPS
Color space : YUV
Chroma subsampling : 4:2:0
Bit depth : 8 bits
Scan type : Progressive
Bits/(Pixel*Frame) : 0.070
Stream size : 2.31 GiB (79%)
Title : Friday the 13th (1980) Dual Full 1080p HD
Writing library : x264 core
Default : Yes
Forced : No
Color range : Limited
Color primaries : BT.709
Transfer characteristics : BT.709
Matrix coefficients : BT.709

Audio #1
ID : 2
Format : AC-3
Format/Info : Audio Coding 3
Format settings, Endianness : Big
Codec ID : A_AC3
Duration : 1 h 35 min
Bit rate mode : Constant
Bit rate : 448 kb/s
Channel(s) : 2 channels
Channel positions : Front: L R
Sampling rate : 48.0 kHz
Frame rate : 31.250 FPS (1536 SPF)
Bit depth : 16 bits
Compression mode : Lossy
Stream size : 306 MiB (10%)
Title : Latino
Language : Spanish
Service kind : Complete Main
Default : Yes
Forced : No

Audio #2
ID : 3
Format : AC-3
Format/Info : Audio Coding 3
Format settings, Endianness : Big
Codec ID : A_AC3
Duration : 1 h 35 min
Bit rate mode : Constant
Bit rate : 448 kb/s
Channel(s) : 6 channels
Channel positions : Front: L C R, Side: L R, LFE
Sampling rate : 48.0 kHz
Frame rate : 31.250 FPS (1536 SPF)
Bit depth : 16 bits
Compression mode : Lossy
Stream size : 306 MiB (10%)
Title : Ingles
Language : English
Service kind : Complete Main
Default : No
Forced : No

Text
ID : 4
Format : VobSub
Muxing mode : zlib
Codec ID : S_VOBSUB
Codec ID/Info : Picture based subtitle format used on DVDs
Duration : 1 h 31 min
Bit rate : 4 586 b/s
Count of elements : 593
Stream size : 3.01 MiB (0%)
Title : Latino
Language : Spanish
Default : No
Forced : No

[/su_spoiler]


| 1fichier | Uptobox | Mega |

Password/Contraseña: peliculasmegahdd.com

Links Intercambiables



Viernes 13 Parte II (1981)

Cinco años después del terrible baño de sangre del campamento de Cristal Lake, todo lo que queda es la leyenda de Jasón Voorhees y de su madre demente, que asesinaron a siete jóvenes. En un campamento cercano, nuevos veraneantes desoyen las advertencias de alejarse del tristemente famoso lugar. Despreocupados, los jóvenes recorren la zona… sin advertir una amenazadora presencia oculta.


[su_spoiler title=”Click para mostrar Capturas” style=”fancy” icon=”caret”][/su_spoiler]


Friday the 13th Part 2 (1981)
BRRip 1080p MKV | Resolución: 1920×1080p | Codec: H.264 | Tamaño: 2.9 GB
Idiomas: Latino AC3 2.0 BD – Ingles AC3 5.1 BD
Subtitulos: Latino – Ingles | Terror – Misterio – Thriller | 5% Recuperación

[su_spoiler title=”Datos MediaInfo” style=”fancy” icon=”caret”]

General
Complete name : Friday the 13th Part II (1981) Dual Full 1080 HD.mkv
Format : Matroska
Format version : Version 4 / Version 2
File size : 2.92 GiB
Duration : 1 h 26 min
Overall bit rate : 4 806 kb/s
Movie name : Friday the 13th Part II (1981) Dual Full 1080 HD PeliculasMegaHDD.net
Encoded date : UTC 2017-11-21 19:32:37
Writing application : mkvmerge v15.0.0 (‘Duel with the Devil’) 64-bit
Writing library : libebml v1.3.5 + libmatroska v1.4.5

Video
ID : 1
Format : AVC
Format/Info : Advanced Video Codec
Format profile : High@L4.1
Format settings, CABAC : Yes
Format settings, RefFrames : 2 frames
Codec ID : V_MPEG4/ISO/AVC
Duration : 1 h 26 min
Bit rate : 3 903 kb/s
Width : 1 920 pixels
Height : 1 080 pixels
Display aspect ratio : 16:9
Frame rate mode : Constant
Frame rate : 23.976 (24000/1001) FPS
Color space : YUV
Chroma subsampling : 4:2:0
Bit depth : 8 bits
Scan type : Progressive
Bits/(Pixel*Frame) : 0.079
Stream size : 2.37 GiB (81%)
Title : Friday the 13th Part II (1981) Dual Full 1080 HD
Writing library : x264 core
Default : Yes
Forced : No
Color range : Limited
Color primaries : BT.709
Transfer characteristics : BT.709
Matrix coefficients : BT.709

Audio #1
ID : 2
Format : AC-3
Format/Info : Audio Coding 3
Format settings, Endianness : Big
Codec ID : A_AC3
Duration : 1 h 26 min
Bit rate mode : Constant
Bit rate : 448 kb/s
Channel(s) : 2 channels
Channel positions : Front: L R
Sampling rate : 48.0 kHz
Frame rate : 31.250 FPS (1536 SPF)
Bit depth : 16 bits
Compression mode : Lossy
Stream size : 279 MiB (9%)
Title : Latino
Language : Spanish
Service kind : Complete Main
Default : Yes
Forced : No

Audio #2
ID : 3
Format : AC-3
Format/Info : Audio Coding 3
Format settings, Endianness : Big
Codec ID : A_AC3
Duration : 1 h 26 min
Bit rate mode : Constant
Bit rate : 448 kb/s
Channel(s) : 6 channels
Channel positions : Front: L C R, Side: L R, LFE
Sampling rate : 48.0 kHz
Frame rate : 31.250 FPS (1536 SPF)
Bit depth : 16 bits
Compression mode : Lossy
Stream size : 279 MiB (9%)
Title : Ingles
Language : English
Service kind : Complete Main
Default : No
Forced : No

Text #1
ID : 4
Format : VobSub
Muxing mode : zlib
Codec ID : S_VOBSUB
Codec ID/Info : Picture based subtitle format used on DVDs
Duration : 1 h 26 min
Bit rate : 4 211 b/s
Count of elements : 551
Stream size : 2.60 MiB (0%)
Title : Español
Language : Spanish
Default : No
Forced : No

Text #2
ID : 5
Format : VobSub
Muxing mode : zlib
Codec ID : S_VOBSUB
Codec ID/Info : Picture based subtitle format used on DVDs
Duration : 1 h 24 min
Bit rate : 4 512 b/s
Count of elements : 543
Stream size : 2.71 MiB (0%)
Title : Ingles
Language : English
Default : No
Forced : No

[/su_spoiler]


| 1fichier | Uptobox | Mega |

Password/Contraseña: peliculasmegahdd.com

Links Intercambiables



Viernes 13 Parte III (1982)

Un idílico verano va a convertirse en la peor de las pesadillas para otro grupo de despreocupados jóvenes de vacaciones. Ignorando el legado de sangre del campamento de Crystal Lake, uno por uno van siendo víctimas del maníaco Jason Voorhees, quien los acecha en cada momento.


[su_spoiler title=”Click para mostrar Capturas” style=”fancy” icon=”caret”][/su_spoiler]


Friday the 13th Part III (1982)
BRRip 1080p MKV | Resolución: 1920×1080p | Codec: H.264 | Tamaño: 3 GB
Idiomas: Latino AC3 2.0 BD – Ingles AC3 5.1 BD
Subtitulos: Latino – Ingles | Terror – Misterio – Thriller | 5% Recuperación

[su_spoiler title=”Datos MediaInfo” style=”fancy” icon=”caret”]

General
Complete name : Friday the 13th Part III (1982) Dual Full 1080p HD.mkv
Format : Matroska
Format version : Version 4 / Version 2
File size : 3.00 GiB
Duration : 1 h 35 min
Overall bit rate : 4 505 kb/s
Movie name : Friday the 13th Part III PeliculasMegaHDD.net
Encoded date : UTC 2017-11-21 19:35:54
Writing application : mkvmerge v15.0.0 (‘Duel with the Devil’) 64-bit
Writing library : libebml v1.3.5 + libmatroska v1.4.5

Video
ID : 1
Format : AVC
Format/Info : Advanced Video Codec
Format profile : High@L4.1
Format settings, CABAC : Yes
Format settings, RefFrames : 2 frames
Codec ID : V_MPEG4/ISO/AVC
Duration : 1 h 35 min
Bit rate : 3 667 kb/s
Width : 1 920 pixels
Height : 1 080 pixels
Display aspect ratio : 16:9
Frame rate mode : Constant
Frame rate : 23.976 (24000/1001) FPS
Color space : YUV
Chroma subsampling : 4:2:0
Bit depth : 8 bits
Scan type : Progressive
Bits/(Pixel*Frame) : 0.074
Stream size : 2.40 GiB (80%)
Title : Friday the 13th Part III
Writing library : x264 core 142
Encoding settings : cabac=1 / ref=1 / deblock=1:-1:-1 / analyse=0x3:0 / me=hex / subme=5 / psy=0 / mixed_ref=0 / me_range=16 / chroma_me=1 / trellis=0 / 8x8dct=1 / cqm=0 / deadzone=21,11 / fast_pskip=1 / chroma_qp_offset=0 / threads=8 / lookahead_threads=2 / sliced_threads=0 / nr=0 / decimate=1 / interlaced=0 / bluray_compat=0 / constrained_intra=0 / bframes=2 / b_pyramid=0 / b_adapt=1 / b_bias=0 / direct=1 / weightb=1 / open_gop=0 / weightp=0 / keyint=24 / keyint_min=13 / scenecut=40 / intra_refresh=0 / rc=abr / mbtree=0 / bitrate=3667 / ratetol=1.0 / qcomp=0.60 / qpmin=0 / qpmax=69 / qpstep=4 / ip_ratio=1.40 / pb_ratio=1.30 / aq=1:1.00
Default : Yes
Forced : No
Color range : Limited
Color primaries : BT.709
Transfer characteristics : BT.709
Matrix coefficients : BT.709

Audio #1
ID : 2
Format : AC-3
Format/Info : Audio Coding 3
Format settings, Endianness : Big
Codec ID : A_AC3
Duration : 1 h 35 min
Bit rate mode : Constant
Bit rate : 448 kb/s
Channel(s) : 2 channels
Channel positions : Front: L R
Sampling rate : 48.0 kHz
Frame rate : 31.250 FPS (1536 SPF)
Bit depth : 16 bits
Compression mode : Lossy
Stream size : 305 MiB (10%)
Title : Latino
Language : Spanish
Service kind : Complete Main
Default : Yes
Forced : No

Audio #2
ID : 3
Format : AC-3
Format/Info : Audio Coding 3
Format settings, Endianness : Big
Codec ID : A_AC3
Duration : 1 h 35 min
Bit rate mode : Constant
Bit rate : 448 kb/s
Channel(s) : 6 channels
Channel positions : Front: L C R, Side: L R, LFE
Sampling rate : 48.0 kHz
Frame rate : 31.250 FPS (1536 SPF)
Bit depth : 16 bits
Compression mode : Lossy
Stream size : 305 MiB (10%)
Title : Ingles
Language : English
Service kind : Complete Main
Default : No
Forced : No

Text #1
ID : 4
Format : VobSub
Muxing mode : zlib
Codec ID : S_VOBSUB
Codec ID/Info : Picture based subtitle format used on DVDs
Duration : 1 h 31 min
Bit rate : 3 527 b/s
Count of elements : 505
Stream size : 2.31 MiB (0%)
Title : Español
Language : Spanish
Default : No
Forced : No

Text #2
ID : 5
Format : VobSub
Muxing mode : zlib
Codec ID : S_VOBSUB
Codec ID/Info : Picture based subtitle format used on DVDs
Duration : 1 h 30 min
Bit rate : 4 870 b/s
Count of elements : 589
Stream size : 3.15 MiB (0%)
Title : Ingles
Language : English
Default : No
Forced : No

[/su_spoiler]


| 1fichier | Uptobox | Mega |

Password/Contraseña: peliculasmegahdd.com

Links Intercambiables



Viernes 13 Parte IV (1984)

Jason, el más impopular de los habitantes de Crystal Lake, regresa para causar mayores estragos. Tras su resurgimiento en el depósito de cadáveres de un hospital, el asesino enmascarado centra su venganza en la familia Jarvis y en un grupo de despreocupados adolescentes. El joven Tommy Jarvis es un gran aficionado al cine de terror, con un talento especial para las máscaras y el maquillaje. ¿Ha encontrado el diabólico Jason finalmente la horma de su zapato?


[su_spoiler title=”Click para mostrar Capturas” style=”fancy” icon=”caret”][/su_spoiler]


Friday the 13th: The Final Chapter (1984)
BRRip 1080p MKV | Resolución: 1920×1080p | Codec: H.264 | Tamaño: 2.9 GB
Idiomas: Latino AC3 5.1 BD – Ingles AC3 5.1 BD
Subtitulos: Latino – Ingles | Terror – Misterio – Thriller | 5% Recuperación

[su_spoiler title=”Datos MediaInfo” style=”fancy” icon=”caret”]

General
Complete name : Friday the 13th Part IV The Final Chapter (1984) Dual Full 1080p HD.mkv
Format : Matroska
Format version : Version 4 / Version 2
File size : 2.92 GiB
Duration : 1 h 31 min
Overall bit rate : 4 576 kb/s
Movie name : Friday the 13th Part IV: The Final Chapter PeliculasMegaHDD.net
Encoded date : UTC 2017-11-21 20:35:19
Writing application : mkvmerge v15.0.0 (‘Duel with the Devil’) 64-bit
Writing library : libebml v1.3.5 + libmatroska v1.4.5

Video
ID : 1
Format : AVC
Format/Info : Advanced Video Codec
Format profile : High@L4.1
Format settings, CABAC : Yes
Format settings, RefFrames : 2 frames
Format settings, GOP : M=3, N=24
Codec ID : V_MPEG4/ISO/AVC
Duration : 1 h 31 min
Bit rate : 3 672 kb/s
Width : 1 920 pixels
Height : 1 080 pixels
Display aspect ratio : 16:9
Frame rate mode : Constant
Frame rate : 23.976 (24000/1001) FPS
Color space : YUV
Chroma subsampling : 4:2:0
Bit depth : 8 bits
Scan type : Progressive
Bits/(Pixel*Frame) : 0.074
Stream size : 2.34 GiB (80%)
Title : Friday the 13th Part IV The Final Chapter (1984) Dual Full 1080p HD
Writing library : x264 core
Default : Yes
Forced : No
Color range : Limited
Color primaries : BT.709
Transfer characteristics : BT.709
Matrix coefficients : BT.709

Audio #1
ID : 2
Format : AC-3
Format/Info : Audio Coding 3
Format settings, Endianness : Big
Codec ID : A_AC3
Duration : 1 h 31 min
Bit rate mode : Constant
Bit rate : 448 kb/s
Channel(s) : 2 channels
Channel positions : Front: L R
Sampling rate : 48.0 kHz
Frame rate : 31.250 FPS (1536 SPF)
Bit depth : 16 bits
Compression mode : Lossy
Stream size : 293 MiB (10%)
Title : Latino
Language : Spanish
Service kind : Complete Main
Default : Yes
Forced : No

Audio #2
ID : 3
Format : AC-3
Format/Info : Audio Coding 3
Format settings, Endianness : Big
Codec ID : A_AC3
Duration : 1 h 31 min
Bit rate mode : Constant
Bit rate : 448 kb/s
Channel(s) : 6 channels
Channel positions : Front: L C R, Side: L R, LFE
Sampling rate : 48.0 kHz
Frame rate : 31.250 FPS (1536 SPF)
Bit depth : 16 bits
Compression mode : Lossy
Stream size : 293 MiB (10%)
Title : Ingles
Language : English
Service kind : Complete Main
Default : No
Forced : No

Text #1
ID : 4
Format : VobSub
Muxing mode : zlib
Codec ID : S_VOBSUB
Codec ID/Info : Picture based subtitle format used on DVDs
Duration : 1 h 30 min
Bit rate : 3 894 b/s
Count of elements : 559
Stream size : 2.53 MiB (0%)
Title : Español
Language : Spanish
Default : No
Forced : No

Text #2
ID : 5
Format : VobSub
Muxing mode : zlib
Codec ID : S_VOBSUB
Codec ID/Info : Picture based subtitle format used on DVDs
Duration : 1 h 30 min
Bit rate : 5 373 b/s
Count of elements : 764
Stream size : 3.49 MiB (0%)
Title : Ingles
Language : English
Default : No
Forced : No

[/su_spoiler]


| 1fichier | Uptobox | Mega |

Password/Contraseña: peliculasmegahdd.com

Links Intercambiables



Viernes 13 Parte V (1985)

Jason ha regresado, con su máscara de hockey y dispuesto a poner de nuevo en práctica todas sus viejas costumbres y trucos en esta nueva entrega. Esta vez parece que ha puesto sus ojos en los jóvenes residentes e una retirada mansión, a medio camino del pueblo. Y algunos de estos adolescentes van a acabar en mitades, cuartos. Jason es capaz de convertir en realidad los peores sueños.


[su_spoiler title=”Click para mostrar Capturas” style=”fancy” icon=”caret”][/su_spoiler]


Friday the 13th: A New Beginning (1985)
BRRip 1080p MKV | Resolución: 1920×1080p | Codec: H.264 | Tamaño: 2.9 GB
Idiomas: Latino AC3 2.0 BD – Ingles AC3 5.1 BD
Subtitulos: Latino – Ingles | Terror – Misterio – Thriller | 5% Recuperación

[su_spoiler title=”Datos MediaInfo” style=”fancy” icon=”caret”]

General
Complete name : Friday the 13th Part V A New Beginning (1985) Dual Full 1080p HD.mkv
Format : Matroska
Format version : Version 4 / Version 2
File size : 2.92 GiB
Duration : 1 h 32 min
Overall bit rate : 4 530 kb/s
Movie name : Friday the 13th Part V A New Beginning (1985) Dual Full 1080p HD PeliculasMegaHDD.net
Encoded date : UTC 2017-11-21 20:38:58
Writing application : mkvmerge v15.0.0 (‘Duel with the Devil’) 64-bit
Writing library : libebml v1.3.5 + libmatroska v1.4.5

Video
ID : 1
Format : AVC
Format/Info : Advanced Video Codec
Format profile : High@L4.1
Format settings, CABAC : Yes
Format settings, RefFrames : 2 frames
Codec ID : V_MPEG4/ISO/AVC
Duration : 1 h 32 min
Bit rate : 3 625 kb/s
Width : 1 920 pixels
Height : 1 080 pixels
Display aspect ratio : 16:9
Frame rate mode : Constant
Frame rate : 23.976 (24000/1001) FPS
Color space : YUV
Chroma subsampling : 4:2:0
Bit depth : 8 bits
Scan type : Progressive
Bits/(Pixel*Frame) : 0.073
Stream size : 2.34 GiB (80%)
Title : Friday the 13th Part V A New Beginning (1985) Dual Full 1080p HD
Writing library : x264 core
Default : Yes
Forced : No
Color range : Limited
Color primaries : BT.709
Transfer characteristics : BT.709
Matrix coefficients : BT.709

Audio #1
ID : 2
Format : AC-3
Format/Info : Audio Coding 3
Format settings, Endianness : Big
Codec ID : A_AC3
Duration : 1 h 32 min
Bit rate mode : Constant
Bit rate : 448 kb/s
Channel(s) : 2 channels
Channel positions : Front: L R
Sampling rate : 48.0 kHz
Frame rate : 31.250 FPS (1536 SPF)
Bit depth : 16 bits
Compression mode : Lossy
Stream size : 296 MiB (10%)
Title : Latino
Language : Spanish
Service kind : Complete Main
Default : Yes
Forced : No

Audio #2
ID : 3
Format : AC-3
Format/Info : Audio Coding 3
Format settings, Endianness : Big
Codec ID : A_AC3
Duration : 1 h 32 min
Bit rate mode : Constant
Bit rate : 448 kb/s
Channel(s) : 6 channels
Channel positions : Front: L C R, Side: L R, LFE
Sampling rate : 48.0 kHz
Frame rate : 31.250 FPS (1536 SPF)
Bit depth : 16 bits
Compression mode : Lossy
Stream size : 296 MiB (10%)
Title : Ingles
Language : English
Service kind : Complete Main
Default : No
Forced : No

Text #1
ID : 4
Format : VobSub
Muxing mode : zlib
Codec ID : S_VOBSUB
Codec ID/Info : Picture based subtitle format used on DVDs
Duration : 1 h 30 min
Bit rate : 4 214 b/s
Count of elements : 510
Stream size : 2.73 MiB (0%)
Title : Español
Language : Spanish
Default : No
Forced : No

Text #2
ID : 5
Format : VobSub
Muxing mode : zlib
Codec ID : S_VOBSUB
Codec ID/Info : Picture based subtitle format used on DVDs
Duration : 1 h 31 min
Bit rate : 6 054 b/s
Count of elements : 789
Stream size : 3.98 MiB (0%)
Title : Ingles
Language : English
Default : No
Forced : No

[/su_spoiler]


| 1fichier | Uptobox | Mega |

Password/Contraseña: peliculasmegahdd.com

Links Intercambiables



Viernes 13 VI (1986)

De pequeño logró hacer algo que supuso el fin de cuantos lo intentaron: mató a Jason Vorhees, el terrible criminal que aterrorizó a los habitantes de Cristal Lake. Y ahora, años más tarde, Tommy se siente atormentado por el miedo de que no esté realmente muerto. Así que Tommy y un amigo van al cementerio y excavan la tumba de Jason. Desgraciadamente para Tommy (y más aún para su amigo), en lugar de encontrar un cadáver descomponiéndose, descubren que Jason se ha conservado a la perfección.


[su_spoiler title=”Click para mostrar Capturas” style=”fancy” icon=”caret”][/su_spoiler]


Jason Lives: Friday the 13th Part VI (1986)
BRRip 1080p MKV | Resolución: 1920×1080p | Codec: H.264 | Tamaño: 2.9 GB
Idiomas: Latino AC3 2.0 BD – Ingles AC3 5.1 BD
Subtitulos: Latino – Ingles | Terror – Misterio – Thriller | 5% Recuperación

[su_spoiler title=”Datos MediaInfo” style=”fancy” icon=”caret”]

General
Complete name : EFriday the 13th Part VI Jason Lives (1986) Dual Full 1080p HD.mkv
Format : Matroska
Format version : Version 4 / Version 2
File size : 2.92 GiB
Duration : 1 h 27 min
Overall bit rate : 4 793 kb/s
Movie name : Friday the 13th Part VI Jason Lives (1986) Dual Full 1080p HD PeliculasMegaHDD.net
Encoded date : UTC 2017-11-21 20:41:48
Writing application : mkvmerge v15.0.0 (‘Duel with the Devil’) 64-bit
Writing library : libebml v1.3.5 + libmatroska v1.4.5

Video
ID : 1
Format : AVC
Format/Info : Advanced Video Codec
Format profile : High@L4.1
Format settings, CABAC : Yes
Format settings, RefFrames : 2 frames
Codec ID : V_MPEG4/ISO/AVC
Duration : 1 h 27 min
Bit rate : 3 887 kb/s
Width : 1 920 pixels
Height : 1 080 pixels
Display aspect ratio : 16:9
Frame rate mode : Constant
Frame rate : 23.976 (24000/1001) FPS
Color space : YUV
Chroma subsampling : 4:2:0
Bit depth : 8 bits
Scan type : Progressive
Bits/(Pixel*Frame) : 0.078
Stream size : 2.37 GiB (81%)
Title : Friday the 13th Part VI Jason Lives (1986) Dual Full 1080p HD
Writing library : x264 core
Default : Yes
Forced : No
Color range : Limited
Color primaries : BT.709
Transfer characteristics : BT.709
Matrix coefficients : BT.709

Audio #1
ID : 2
Format : AC-3
Format/Info : Audio Coding 3
Format settings, Endianness : Big
Codec ID : A_AC3
Duration : 1 h 27 min
Bit rate mode : Constant
Bit rate : 448 kb/s
Channel(s) : 2 channels
Channel positions : Front: L R
Sampling rate : 48.0 kHz
Frame rate : 31.250 FPS (1536 SPF)
Bit depth : 16 bits
Compression mode : Lossy
Stream size : 279 MiB (9%)
Title : Latino
Language : Spanish
Service kind : Complete Main
Default : Yes
Forced : No

Audio #2
ID : 3
Format : AC-3
Format/Info : Audio Coding 3
Format settings, Endianness : Big
Codec ID : A_AC3
Duration : 1 h 27 min
Bit rate mode : Constant
Bit rate : 448 kb/s
Channel(s) : 6 channels
Channel positions : Front: L C R, Side: L R, LFE
Sampling rate : 48.0 kHz
Frame rate : 31.250 FPS (1536 SPF)
Bit depth : 16 bits
Compression mode : Lossy
Stream size : 279 MiB (9%)
Title : Ingles
Language : English
Service kind : Complete Main
Default : No
Forced : No

Text #1
ID : 4
Format : VobSub
Muxing mode : zlib
Codec ID : S_VOBSUB
Codec ID/Info : Picture based subtitle format used on DVDs
Duration : 1 h 26 min
Bit rate : 5 472 b/s
Count of elements : 582
Stream size : 3.37 MiB (0%)
Title : Español
Language : Spanish
Default : No
Forced : No

Text #2
ID : 5
Format : VobSub
Muxing mode : zlib
Codec ID : S_VOBSUB
Codec ID/Info : Picture based subtitle format used on DVDs
Duration : 1 h 26 min
Bit rate : 7 527 b/s
Count of elements : 842
Stream size : 4.67 MiB (0%)
Title : Ingles
Language : English
Default : No
Forced : No

[/su_spoiler]


| 1fichier | Uptobox | Mega |

Password/Contraseña: peliculasmegahdd.com

Links Intercambiables



Viernes 13 Parte VII (1988)

Desde que el maníaco homicida Jason Voorhees quedó atrapado en unas cadenas al fondo del lago Crystal, el campamento de verano más cercano no ha sufrido ningún altercado… ni asesinatos. Pero una de las campistas, Tina Shepherd, puede ver el futuro y hacer levitar objetos. Su médico conoce los peligros de la telequinesia, pero tiene más interés en aprovecharse de ella que en ayudarla. Y ahora es demasiado tarde. Sin querer, Tina ha liberado a Jason de su tumba acuosa, y el baño de sangre está a punto de empezar.


[su_spoiler title=”Click para mostrar Capturas” style=”fancy” icon=”caret”][/su_spoiler]


Friday the 13th Part VII: The New Blood (1988)
BRRip 1080p MKV | Resolución: 1920×1080p | Codec: H.264 | Tamaño: 2.9 GB
Idiomas: Latino AC3 2.0 BD – Ingles AC3 5.1 BD
Subtitulos: Latino – Ingles | Terror – Misterio – Thriller | 5% Recuperación

[su_spoiler title=”Datos MediaInfo” style=”fancy” icon=”caret”]

General
Complete name : Friday the 13th Part VII The New Blood (1988) Dual Full 1080p HD.mkv
Format : Matroska
Format version : Version 4 / Version 2
File size : 2.91 GiB
Duration : 1 h 28 min
Overall bit rate : 4 723 kb/s
Movie name : Friday the 13th Part VII The New Blood (1988) Dual Full 1080p HD PeliculasMegaHDD.net
Encoded date : UTC 2017-11-21 20:44:19
Writing application : mkvmerge v15.0.0 (‘Duel with the Devil’) 64-bit
Writing library : libebml v1.3.5 + libmatroska v1.4.5

Video
ID : 1
Format : AVC
Format/Info : Advanced Video Codec
Format profile : High@L4.1
Format settings, CABAC : Yes
Format settings, RefFrames : 2 frames
Codec ID : V_MPEG4/ISO/AVC
Duration : 1 h 28 min
Bit rate : 3 807 kb/s
Width : 1 920 pixels
Height : 1 080 pixels
Display aspect ratio : 16:9
Frame rate mode : Constant
Frame rate : 23.976 (24000/1001) FPS
Color space : YUV
Chroma subsampling : 4:2:0
Bit depth : 8 bits
Scan type : Progressive
Bits/(Pixel*Frame) : 0.077
Stream size : 2.35 GiB (81%)
Title : Friday the 13th Part VII The New Blood (1988) Dual Full 1080p HD
Writing library : x264 core
Default : Yes
Forced : No
Color range : Limited
Color primaries : BT.709
Transfer characteristics : BT.709
Matrix coefficients : BT.709

Audio #1
ID : 2
Format : AC-3
Format/Info : Audio Coding 3
Format settings, Endianness : Big
Codec ID : A_AC3
Duration : 1 h 28 min
Bit rate mode : Constant
Bit rate : 448 kb/s
Channel(s) : 2 channels
Channel positions : Front: L R
Sampling rate : 48.0 kHz
Frame rate : 31.250 FPS (1536 SPF)
Bit depth : 16 bits
Compression mode : Lossy
Stream size : 283 MiB (9%)
Title : Latino
Language : Spanish
Service kind : Complete Main
Default : Yes
Forced : No

Audio #2
ID : 3
Format : AC-3
Format/Info : Audio Coding 3
Format settings, Endianness : Big
Codec ID : A_AC3
Duration : 1 h 28 min
Bit rate mode : Constant
Bit rate : 448 kb/s
Channel(s) : 6 channels
Channel positions : Front: L C R, Side: L R, LFE
Sampling rate : 48.0 kHz
Frame rate : 31.250 FPS (1536 SPF)
Bit depth : 16 bits
Compression mode : Lossy
Stream size : 283 MiB (9%)
Title : Ingles
Language : English
Service kind : Complete Main
Default : No
Forced : No

Text #1
ID : 4
Format : PGS
Muxing mode : zlib
Codec ID : S_HDMV/PGS
Codec ID/Info : Picture based subtitle format used on BDs/HD-DVDs
Duration : 1 h 27 min
Bit rate : 17.1 kb/s
Count of elements : 1354
Stream size : 10.7 MiB (0%)
Title : Español
Language : Spanish
Default : No
Forced : No

Text #2
ID : 5
Format : PGS
Muxing mode : zlib
Codec ID : S_HDMV/PGS
Codec ID/Info : Picture based subtitle format used on BDs/HD-DVDs
Duration : 1 h 27 min
Bit rate : 21.0 kb/s
Count of elements : 1578
Stream size : 13.1 MiB (0%)
Title : Ingles
Language : English
Default : No
Forced : No

[/su_spoiler]


| 1fichier | Uptobox | Mega |

Password/Contraseña: peliculasmegahdd.com

Links Intercambiables



Viernes 13 Parte VIII (1989)

Jason ha escogido como víctimas a un grupo de escolares que se encuentra en Crystal Lake. Tras una primera masacre, decide ir a Manhattan para acabar con los supervivientes de su primera embestida.


[su_spoiler title=”Click para mostrar Capturas” style=”fancy” icon=”caret”][/su_spoiler]


Friday the 13th Part VIII: Jason Takes (1989)
BRRip 1080p MKV | Resolución: 1920×1080p | Codec: H.264 | Tamaño: 2.9 GB
Idiomas: Latino AC3 2.0 BD – Ingles AC3 5.1 BD
Subtitulos: Latino – Ingles | Terror – Misterio – Thriller | 5% Recuperación

[su_spoiler title=”Datos MediaInfo” style=”fancy” icon=”caret”]

General
Complete name : Friday the 13th Part VIII Jason Takes Manhattan (1989) Dual Full 1080p HD.mkv
Format : Matroska
Format version : Version 4 / Version 2
File size : 2.92 GiB
Duration : 1 h 40 min
Overall bit rate : 4 159 kb/s
Movie name : Friday the 13th Part VIII Jason Takes Manhattan (1989) Dual Full 1080p HD PeliculasMegaHDD.net
Encoded date : UTC 2017-11-21 20:46:03
Writing application : mkvmerge v15.0.0 (‘Duel with the Devil’) 64-bit
Writing library : libebml v1.3.5 + libmatroska v1.4.5

Video
ID : 1
Format : AVC
Format/Info : Advanced Video Codec
Format profile : High@L4.1
Format settings, CABAC : Yes
Format settings, RefFrames : 2 frames
Codec ID : V_MPEG4/ISO/AVC
Duration : 1 h 40 min
Bit rate : 3 247 kb/s
Width : 1 920 pixels
Height : 1 080 pixels
Display aspect ratio : 16:9
Frame rate mode : Constant
Frame rate : 23.976 (24000/1001) FPS
Color space : YUV
Chroma subsampling : 4:2:0
Bit depth : 8 bits
Scan type : Progressive
Bits/(Pixel*Frame) : 0.065
Stream size : 2.28 GiB (78%)
Title : Friday the 13th Part VIII Jason Takes Manhattan (1989) Dual Full 1080p HD
Writing library : x264 core
Default : Yes
Forced : No
Color range : Limited
Color primaries : BT.709
Transfer characteristics : BT.709
Matrix coefficients : BT.709

Audio #1
ID : 2
Format : AC-3
Format/Info : Audio Coding 3
Format settings, Endianness : Big
Codec ID : A_AC3
Duration : 1 h 40 min
Bit rate mode : Constant
Bit rate : 448 kb/s
Channel(s) : 2 channels
Channel positions : Front: L R
Sampling rate : 48.0 kHz
Frame rate : 31.250 FPS (1536 SPF)
Bit depth : 16 bits
Compression mode : Lossy
Stream size : 322 MiB (11%)
Title : Latino
Language : Spanish
Service kind : Complete Main
Default : Yes
Forced : No

Audio #2
ID : 3
Format : AC-3
Format/Info : Audio Coding 3
Format settings, Endianness : Big
Codec ID : A_AC3
Duration : 1 h 40 min
Bit rate mode : Constant
Bit rate : 448 kb/s
Channel(s) : 6 channels
Channel positions : Front: L C R, Side: L R, LFE
Sampling rate : 48.0 kHz
Frame rate : 31.250 FPS (1536 SPF)
Bit depth : 16 bits
Compression mode : Lossy
Stream size : 322 MiB (11%)
Title : Ingles
Language : English
Service kind : Complete Main
Default : No
Forced : No

Text #1
ID : 4
Format : PGS
Muxing mode : zlib
Codec ID : S_HDMV/PGS
Codec ID/Info : Picture based subtitle format used on BDs/HD-DVDs
Duration : 1 h 40 min
Bit rate : 12.1 kb/s
Count of elements : 1156
Stream size : 8.70 MiB (0%)
Title : Español
Language : Spanish
Default : No
Forced : No

Text #2
ID : 5
Format : PGS
Muxing mode : zlib
Codec ID : S_HDMV/PGS
Codec ID/Info : Picture based subtitle format used on BDs/HD-DVDs
Duration : 1 h 40 min
Bit rate : 17.0 kb/s
Count of elements : 1492
Stream size : 12.2 MiB (0%)
Title : Ingles
Language : English
Default : No
Forced : No

[/su_spoiler]


| 1fichier | Uptobox | Mega |

Password/Contraseña: peliculasmegahdd.com

Links Intercambiables



Viernes 13 Parte IX (1993)

El último descendiente de la familia Voorhees debe detener a Jason, que tras volverse loco, ha sembrado el terror y va dejando tras de sí un rastro de sangre. Si no lo consigue a tiempo, Jason podría volverse inmortal y nadie podría detenerlo.


[su_spoiler title=”Click para mostrar Capturas” style=”fancy” icon=”caret”][/su_spoiler]


Jason Goes to Hell: The Final Friday (1993)
BRRip 1080p MKV | Resolución: 1920×1080p | Codec: H.264 | Tamaño: 2.9 GB
Idiomas: Latino AC3 2.0 BD – Ingles AC3 5.1 BD
Subtitulos: Latino – Ingles | Terror – Misterio – Thriller | 5% Recuperación

[su_spoiler title=”Datos MediaInfo” style=”fancy” icon=”caret”]

General
Complete name : Friday the 13th Part IX Jason Goes to Hell – The Final Friday (1993) Dual Full 1080p HD.mkv
Format : Matroska
Format version : Version 4 / Version 2
File size : 2.92 GiB
Duration : 1 h 27 min
Overall bit rate : 4 759 kb/s
Movie name : Friday the 13th Part IX Jason Goes to Hell – The Final Friday (1993) Dual Full 1080p HD PeliculasMegaHDD.net
Encoded date : UTC 2017-11-21 20:48:30
Writing application : mkvmerge v15.0.0 (‘Duel with the Devil’) 64-bit
Writing library : libebml v1.3.5 + libmatroska v1.4.5

Video
ID : 1
Format : AVC
Format/Info : Advanced Video Codec
Format profile : High@L4.1
Format settings, CABAC : Yes
Format settings, RefFrames : 2 frames
Codec ID : V_MPEG4/ISO/AVC
Duration : 1 h 27 min
Bit rate : 3 853 kb/s
Width : 1 920 pixels
Height : 1 080 pixels
Display aspect ratio : 16:9
Frame rate mode : Constant
Frame rate : 23.976 (24000/1001) FPS
Color space : YUV
Chroma subsampling : 4:2:0
Bit depth : 8 bits
Scan type : Progressive
Bits/(Pixel*Frame) : 0.078
Stream size : 2.36 GiB (81%)
Title : Friday the 13th Part IX Jason Goes to Hell – The Final Friday (1993) Dual Full 1080p HD
Writing library : x264 core
Default : Yes
Forced : No
Color range : Limited
Color primaries : BT.709
Transfer characteristics : BT.709
Matrix coefficients : BT.709

Audio #1
ID : 2
Format : AC-3
Format/Info : Audio Coding 3
Format settings, Endianness : Big
Codec ID : A_AC3
Duration : 1 h 27 min
Bit rate mode : Constant
Bit rate : 448 kb/s
Channel(s) : 2 channels
Channel positions : Front: L R
Sampling rate : 48.0 kHz
Frame rate : 31.250 FPS (1536 SPF)
Bit depth : 16 bits
Compression mode : Lossy
Stream size : 281 MiB (9%)
Title : Latino
Language : Spanish
Service kind : Complete Main
Default : Yes
Forced : No

Audio #2
ID : 3
Format : AC-3
Format/Info : Audio Coding 3
Format settings, Endianness : Big
Codec ID : A_AC3
Duration : 1 h 27 min
Bit rate mode : Constant
Bit rate : 448 kb/s
Channel(s) : 6 channels
Channel positions : Front: L C R, Side: L R, LFE
Sampling rate : 48.0 kHz
Frame rate : 31.250 FPS (1536 SPF)
Bit depth : 16 bits
Compression mode : Lossy
Stream size : 281 MiB (9%)
Title : Ingles
Service kind : Complete Main
Default : No
Forced : No

Text #1
ID : 4
Format : VobSub
Muxing mode : zlib
Codec ID : S_VOBSUB
Codec ID/Info : Picture based subtitle format used on DVDs
Duration : 1 h 25 min
Bit rate : 5 750 b/s
Count of elements : 730
Stream size : 3.53 MiB (0%)
Title : Español
Language : Spanish
Default : No
Forced : No

Text #2
ID : 5
Format : VobSub
Muxing mode : zlib
Codec ID : S_VOBSUB
Codec ID/Info : Picture based subtitle format used on DVDs
Duration : 1 h 25 min
Bit rate : 6 720 b/s
Count of elements : 822
Stream size : 4.13 MiB (0%)
Title : Ingles
Language : English
Default : No
Forced : No

[/su_spoiler]


| 1fichier | Uptobox | Mega |

Password/Contraseña: peliculasmegahdd.com

Links Intercambiables



Viernes 13 Parte X (2001)

En el año 2445, la Tierra es un lugar contaminado al que regresan de vez en cuando los hombres para recoger residuos de la vieja civilización. Poco se imaginan los jóvenes e intrépidos exploradores que acaban de aterrizar en la Tierra el destino que les aguarda.


[su_spoiler title=”Click para mostrar Capturas” style=”fancy” icon=”caret”][/su_spoiler]


Jason X (2001)
BRRip 1080p MKV | Resolución: 1920×1080p | Codec: H.264 | Tamaño: 2.9 GB
Idiomas: Latino AC3 2.0 BD – Ingles AC3 5.1 BD
Subtitulos: Latino – Ingles | Terror – Misterio – Thriller | 5% Recuperación

[su_spoiler title=”Datos MediaInfo” style=”fancy” icon=”caret”]

General
Complete name : Friday the 13th Part X Jason X (2001) Dual Full 1080p HD.mkv
Format : Matroska
Format version : Version 4 / Version 2
File size : 2.91 GiB
Duration : 1 h 31 min
Overall bit rate : 4 546 kb/s
Movie name : Friday the 13th Part X Jason X (2001) Dual Full 1080p HD PeliculasMegaHDD.net
Encoded date : UTC 2017-11-21 20:50:49
Writing application : mkvmerge v15.0.0 (‘Duel with the Devil’) 64-bit
Writing library : libebml v1.3.5 + libmatroska v1.4.5

Video
ID : 1
Format : AVC
Format/Info : Advanced Video Codec
Format profile : High@L4.1
Format settings, CABAC : Yes
Format settings, RefFrames : 2 frames
Codec ID : V_MPEG4/ISO/AVC
Duration : 1 h 31 min
Bit rate : 3 639 kb/s
Width : 1 920 pixels
Height : 1 080 pixels
Display aspect ratio : 16:9
Frame rate mode : Constant
Frame rate : 23.976 (24000/1001) FPS
Color space : YUV
Chroma subsampling : 4:2:0
Bit depth : 8 bits
Scan type : Progressive
Bits/(Pixel*Frame) : 0.073
Stream size : 2.33 GiB (80%)
Title : Friday the 13th Part X Jason X (2001) Dual Full 1080p HD
Writing library : x264 core
Default : Yes
Forced : No
Color range : Limited
Color primaries : BT.709
Transfer characteristics : BT.709
Matrix coefficients : BT.709

Audio #1
ID : 2
Format : AC-3
Format/Info : Audio Coding 3
Format settings, Endianness : Big
Codec ID : A_AC3
Duration : 1 h 31 min
Bit rate mode : Constant
Bit rate : 448 kb/s
Channel(s) : 2 channels
Channel positions : Front: L R
Sampling rate : 48.0 kHz
Frame rate : 31.250 FPS (1536 SPF)
Bit depth : 16 bits
Compression mode : Lossy
Stream size : 294 MiB (10%)
Title : Latino
Language : Spanish
Service kind : Complete Main
Default : Yes
Forced : No

Audio #2
ID : 3
Format : AC-3
Format/Info : Audio Coding 3
Format settings, Endianness : Big
Codec ID : A_AC3
Duration : 1 h 31 min
Bit rate mode : Constant
Bit rate : 448 kb/s
Channel(s) : 6 channels
Channel positions : Front: L C R, Side: L R, LFE
Sampling rate : 48.0 kHz
Frame rate : 31.250 FPS (1536 SPF)
Bit depth : 16 bits
Compression mode : Lossy
Stream size : 294 MiB (10%)
Title : Ingles
Language : English
Service kind : Complete Main
Default : No
Forced : No

Text #1
ID : 4
Format : VobSub
Muxing mode : zlib
Codec ID : S_VOBSUB
Codec ID/Info : Picture based subtitle format used on DVDs
Duration : 1 h 28 min
Bit rate : 6 298 b/s
Count of elements : 725
Stream size : 3.99 MiB (0%)
Title : Español
Language : Spanish
Default : No
Forced : No

Text #2
ID : 5
Format : VobSub
Muxing mode : zlib
Codec ID : S_VOBSUB
Codec ID/Info : Picture based subtitle format used on DVDs
Duration : 1 h 31 min
Bit rate : 7 225 b/s
Count of elements : 870
Stream size : 4.72 MiB (0%)
Title : Ingles
Language : English
Default : No
Forced : No

[/su_spoiler]


| 1fichier | Uptobox | Mega |

Password/Contraseña: peliculasmegahdd.com

Links Intercambiables



Freddy vs. Jason (2003)

Freddy Krueger está en el infierno de verdad, pero su recuerdo ha sido sistemáticamente borrado en el pueblo, cuyos habitantes están decididos a terminar con él. Las potenciales víctimas han sido drogadas para impedir que sueñen, dejando impotente al maestro de las pesadillas. Han eliminado su miedo a Freddy y esto representa una tortura extrema para un psicópata egocéntrico que se considera una auténtica leyenda. Pero entonces Freddy resucita a Jason Voorhees. Para Freddy es el medio perfecto para volver a aterrorizar a los habitantes de Elm Street y le da la oportunidad de salir de su purgatorio. Manipula a Jason con suma facilidad y le engaña para que viaje a Springwood para iniciar otro reinado de terror. Aunque los cadáveres empiezan a acumularse en Elm Street y la reputación de Freddy cobra nueva vida, Freddy descubre que Jason no está dispuesto a renunciar a sus costumbres asesinas y dejarle el camino libre. Con un pueblo estremecido en medio, un enfrentamiento de proporciones épicas se desata entre los dos titanes del terror, alternando entre el mundo de los sueños y la dura realidad del mundo de los vivos. ¿Quién ganará la batalla de todas las batallas?


[su_spoiler title=”Click para mostrar Capturas” style=”fancy” icon=”caret”][/su_spoiler]


Freddy vs. Jason (2003)
BRRip 1080p MKV | Resolución: 1920×1080p | Codec: H.264 | Tamaño: 5.2 GB
Idiomas: Latino AC3 2.0 BD – Ingles AC3 5.1 BD
Subtitulos: Latino – Ingles | Terror – Misterio – Thriller | 5% Recuperación

[su_spoiler title=”Datos MediaInfo” style=”fancy” icon=”caret”]

General
Complete name : Freddy vs. Jason (2003) Dual Full 1080p HD.mkv
Format : Matroska
Format version : Version 4 / Version 2
File size : 5.29 GiB
Duration : 1 h 37 min
Overall bit rate : 7 783 kb/s
Movie name : Freddy vs. Jason (2003) Dual Full 1080p HD PeliculasMegaHDD.net
Encoded date : UTC 2017-11-21 21:01:26 / UTC 2016-12-23T02:01:38Z
Writing application : mkvmerge v15.0.0 (‘Duel with the Devil’) 64-bit
Writing library : libebml v1.3.5 + libmatroska v1.4.5 / Lavf55.12.0

Video
ID : 1
Format : AVC
Format/Info : Advanced Video Codec
Format profile : High@L4.1
Format settings, CABAC : Yes
Format settings, RefFrames : 4 frames
Codec ID : V_MPEG4/ISO/AVC
Duration : 1 h 37 min
Bit rate : 7 244 kb/s
Width : 1 920 pixels
Height : 1 080 pixels
Display aspect ratio : 16:9
Frame rate mode : Constant
Frame rate : 23.976 (24000/1001) FPS
Color space : YUV
Chroma subsampling : 4:2:0
Bit depth : 8 bits
Scan type : Progressive
Bits/(Pixel*Frame) : 0.146
Stream size : 4.92 GiB (93%)
Title : Freddy vs. Jason (2003) Dual Full 1080p HD
Writing library : x264 core 142 r2479 dd79a61
Encoding settings : cabac=1 / ref=4 / deblock=1:0:0 / analyse=0x3:0x133 / me=umh / subme=10 / psy=1 / psy_rd=1.00:0.00 / mixed_ref=1 / me_range=24 / chroma_me=1 / trellis=2 / 8x8dct=1 / cqm=0 / deadzone=21,11 / fast_pskip=1 / chroma_qp_offset=-2 / threads=12 / lookahead_threads=2 / sliced_threads=0 / nr=0 / decimate=1 / interlaced=0 / bluray_compat=0 / constrained_intra=0 / bframes=8 / b_pyramid=2 / b_adapt=2 / b_bias=0 / direct=3 / weightb=1 / open_gop=0 / weightp=2 / keyint=240 / keyint_min=24 / scenecut=40 / intra_refresh=0 / rc_lookahead=60 / rc=crf / mbtree=1 / crf=20.0 / qcomp=0.60 / qpmin=0 / qpmax=69 / qpstep=4 / vbv_maxrate=62500 / vbv_bufsize=78125 / crf_max=0.0 / nal_hrd=none / filler=0 / ip_ratio=1.40 / aq=1:1.00
Default : Yes
Forced : No
Color range : Limited
Color primaries : BT.709
Transfer characteristics : BT.709
Matrix coefficients : BT.709
Statistics Tags Issue : mkvmerge v15.0.0 (‘Duel with the Devil’) 64-bit 2017-11-21 21:01:26 / mkvmerge v15.0.0 (‘Duel with the Devil’) 64-bit 2017-11-21 21:01:26 / UTC 2016-12-23T02:01:38Z
FromStats_BitRate : 7374295
FromStats_Duration : 01:37:20.085000000
FromStats_FrameCount : 140022
FromStats_StreamSize : 5383313811

Audio #1
ID : 2
Format : AC-3
Format/Info : Audio Coding 3
Mode : Dolby Digital
Format settings, Endianness : Big
Codec ID : A_AC3
Duration : 1 h 37 min
Bit rate mode : Constant
Bit rate : 192 kb/s
Channel(s) : 2 channels
Channel positions : Front: L R
Sampling rate : 48.0 kHz
Frame rate : 31.250 FPS (1536 SPF)
Bit depth : 16 bits
Compression mode : Lossy
Delay relative to video : -83 ms
Stream size : 134 MiB (2%)
Title : Latino
Language : Spanish
Service kind : Complete Main
Default : Yes
Forced : No
Statistics Tags Issue : mkvmerge v15.0.0 (‘Duel with the Devil’) 64-bit 2017-11-21 21:01:26 / mkvmerge v15.0.0 (‘Duel with the Devil’) 64-bit 2017-11-21 21:01:26 / UTC 2016-12-23T02:01:38Z
FromStats_BitRate : 192000
FromStats_Duration : 01:37:20.128000000
FromStats_FrameCount : 182504
FromStats_StreamSize : 140163072

Audio #2
ID : 3
Format : AC-3
Format/Info : Audio Coding 3
Mode : Dolby Digital
Format settings, Endianness : Big
Codec ID : A_AC3
Duration : 1 h 37 min
Bit rate mode : Constant
Bit rate : 192 kb/s
Channel(s) : 2 channels
Channel positions : Front: L R
Sampling rate : 48.0 kHz
Frame rate : 31.250 FPS (1536 SPF)
Bit depth : 16 bits
Compression mode : Lossy
Delay relative to video : -83 ms
Stream size : 134 MiB (2%)
Title : Ingles
Language : English
Service kind : Complete Main
Default : No
Forced : No
Statistics Tags Issue : mkvmerge v15.0.0 (‘Duel with the Devil’) 64-bit 2017-11-21 21:01:26 / mkvmerge v15.0.0 (‘Duel with the Devil’) 64-bit 2017-11-21 21:01:26 / UTC 2016-12-23T02:01:38Z
FromStats_BitRate : 192000
FromStats_Duration : 01:37:20.128000000
FromStats_FrameCount : 182504
FromStats_StreamSize : 140163072

Text #1
ID : 4
Format : PGS
Muxing mode : zlib
Codec ID : S_HDMV/PGS
Codec ID/Info : Picture based subtitle format used on BDs/HD-DVDs
Title : Latino
Language : Spanish
Default : No
Forced : No
Statistics Tags Issue : mkvmerge v15.0.0 (‘Duel with the Devil’) 64-bit 2017-11-21 21:01:26 / mkvmerge v15.0.0 (‘Duel with the Devil’) 64-bit 2017-11-21 21:01:26 / UTC 2016-12-23T02:01:38Z
FromStats_BitRate : 23336
FromStats_Duration : 01:36:45.842000000
FromStats_FrameCount : 1700
FromStats_StreamSize : 16936011

Text #2
ID : 5
Format : PGS
Muxing mode : zlib
Codec ID : S_HDMV/PGS
Codec ID/Info : Picture based subtitle format used on BDs/HD-DVDs
Title : Ingles
Language : English
Default : No
Forced : No
Statistics Tags Issue : mkvmerge v15.0.0 (‘Duel with the Devil’) 64-bit 2017-11-21 21:01:26 / mkvmerge v15.0.0 (‘Duel with the Devil’) 64-bit 2017-11-21 21:01:26 / UTC 2016-12-23T02:01:38Z
FromStats_BitRate : 27635
FromStats_Duration : 01:36:45.842000000
FromStats_FrameCount : 2004
FromStats_StreamSize : 20055571

Menu
00:00:00.000 : :Chapter 1
00:02:56.259 : :Chapter 2
00:06:37.188 : :Chapter 3
00:14:42.131 : :Chapter 4
00:20:32.189 : :Chapter 5
00:23:56.768 : :Chapter 6
00:33:25.795 : :Chapter 7
00:43:58.886 : :Chapter 8
00:48:53.055 : :Chapter 9
00:52:14.840 : :Chapter 10
00:57:52.510 : :Chapter 11
01:04:04.340 : :Chapter 12
01:07:46.270 : :Chapter 13
01:17:09.750 : :Chapter 14
01:21:04.860 : :Chapter 15
01:26:43.698 : :Chapter 16
01:30:14.492 : :Chapter 17

[/su_spoiler]


| 1fichier | Uptobox | Mega |

Password/Contraseña: peliculasmegahdd.com

Links Intercambiables



Viernes 13 (2009)

Buscando a su hermana desaparecida, Clay se dirige al espeluznante bosque del legendario Crystal Lake, donde tropieza con los viejos y decrépitos restos de una cabaña que yace detrás de unos árboles cubiertos por denso musgo. Y esto no es lo único que se esconde entre la maleza? En contra del consejo de la policía y las advertencias de los habitantes de la zona, Clay continúa con su búsqueda, ayudado por una joven mujer que ha conocido entre un grupo de jóvenes estudiantes preparados para pasar un emocionante fin de semana. Sin embargo, ellos están a punto de encontrar algo más que no habían tenido en cuenta. Lo que menos se imaginan es que han entrado en el dominio de uno de los más terríficos espectros de la historia del cine americano: el infame asesino que caza en Crystal Lake armado con una sierra eléctrica? Jason Voorhees.


[su_spoiler title=”Click para mostrar Capturas” style=”fancy” icon=”caret”][/su_spoiler]


Friday the 13th (2009)
BRRip 1080p MKV | Resolución: 1920×1080p | Codec: H.264 | Tamaño: 2.9 GB
Idiomas: Latino AC3 5.1 BD – Ingles AC3 5.1 BD
Subtitulos: Latino – Ingles | Terror – Misterio – Thriller | 5% Recuperación

[su_spoiler title=”Datos MediaInfo” style=”fancy” icon=”caret”]

General
Complete name : Friday the 13th (2009) Dual Full 1080p HD.mkv
Format : Matroska
Format version : Version 4 / Version 2
File size : 2.91 GiB
Duration : 1 h 37 min
Overall bit rate : 4 286 kb/s
Movie name : Friday the 13th (2009) Dual Full 1080p HD PeliculasMegaHDD.net
Encoded date : UTC 2017-11-21 20:57:22
Writing application : mkvmerge v15.0.0 (‘Duel with the Devil’) 64-bit
Writing library : libebml v1.3.5 + libmatroska v1.4.5

Video
ID : 1
Format : AVC
Format/Info : Advanced Video Codec
Format profile : High@L4.1
Format settings, CABAC : Yes
Format settings, RefFrames : 2 frames
Format settings, GOP : M=3, N=24
Codec ID : V_MPEG4/ISO/AVC
Duration : 1 h 37 min
Bit rate : 3 380 kb/s
Width : 1 920 pixels
Height : 1 080 pixels
Display aspect ratio : 16:9
Frame rate mode : Constant
Frame rate : 23.976 (24000/1001) FPS
Color space : YUV
Chroma subsampling : 4:2:0
Bit depth : 8 bits
Scan type : Progressive
Bits/(Pixel*Frame) : 0.068
Stream size : 2.29 GiB (79%)
Title : Friday the 13th (2009) Dual Full 1080p HD
Writing library : x264 core
Default : Yes
Forced : No
Color range : Limited
Color primaries : BT.709
Transfer characteristics : BT.709
Matrix coefficients : BT.709

Audio #1
ID : 2
Format : AC-3
Format/Info : Audio Coding 3
Format settings, Endianness : Big
Codec ID : A_AC3
Duration : 1 h 37 min
Bit rate mode : Constant
Bit rate : 448 kb/s
Channel(s) : 6 channels
Channel positions : Front: L C R, Side: L R, LFE
Sampling rate : 48.0 kHz
Frame rate : 31.250 FPS (1536 SPF)
Bit depth : 16 bits
Compression mode : Lossy
Stream size : 311 MiB (10%)
Title : Latino
Language : Spanish
Service kind : Complete Main
Default : Yes
Forced : No

Audio #2
ID : 3
Format : AC-3
Format/Info : Audio Coding 3
Format settings, Endianness : Big
Codec ID : A_AC3
Duration : 1 h 37 min
Bit rate mode : Constant
Bit rate : 448 kb/s
Channel(s) : 6 channels
Channel positions : Front: L C R, Side: L R, LFE
Sampling rate : 48.0 kHz
Frame rate : 31.250 FPS (1536 SPF)
Bit depth : 16 bits
Compression mode : Lossy
Stream size : 311 MiB (10%)
Title : Ingles
Language : English
Service kind : Complete Main
Default : No
Forced : No

Text #1
ID : 4
Format : VobSub
Muxing mode : zlib
Codec ID : S_VOBSUB
Codec ID/Info : Picture based subtitle format used on DVDs
Duration : 1 h 36 min
Bit rate : 5 527 b/s
Count of elements : 867
Stream size : 3.80 MiB (0%)
Title : Español
Language : Spanish
Default : No
Forced : No

Text #2
ID : 5
Format : VobSub
Muxing mode : zlib
Codec ID : S_VOBSUB
Codec ID/Info : Picture based subtitle format used on DVDs
Duration : 1 h 35 min
Bit rate : 6 848 b/s
Count of elements : 946
Stream size : 4.70 MiB (0%)
Title : Ingles
Language : English
Default : No
Forced : No

[/su_spoiler]


| 1fichier | Uptobox | Mega |

Password/Contraseña: peliculasmegahdd.com

Links Intercambiables

La contraseña para descomprimir los archivos es: peliculasmegahdd.com o pelisxmegahd.com

Calificación de IMDb6,5 94.099 votos

Títulos similares

Colección Películas Star Wars Full 1080p HD Español Latino – Ingles
Saga Saw Completa Full 1080p HD Unrated Latino – Ingles
Colección Películas Destino Final Full 1080p HD Español Latino – Ingles
Los comentarios están cerrados.